Бросок кобры 2 / G.I. Joe 2: Retaliation [Трейлер] [2011 / Русский]

Тэги трейлер, боевик, 2011, фантастика, bdrip, фильмы
Сиды / личи 39 / 10

Бросок кобры 2 / G.I. Joe 2: Retaliation [Трейлер] [2011 / Русский]
Название: Бросок кобры 2 / G.I. Joe 2: Retaliation [Трейлер]
Год выхода: 2011
Тип: Язык: Русский
Перевод : Профессиональный, дублированный
Аудио: AAC LC, 48.0 KHz, 2 ch, 96 Kbps, CBR
Видео: MPEG4 Video (H264) 1920x794 29.99fps Bit rate : 7 994 Kbps
Жанр: Фантастика, боевик
Продолжительность: 2m 25s
Качество: HDTV
Размер: 140.16 MB
Описание:
О содержании: Продолжение нашумевшего блокбастера про команду G.I. Joe , теперь с Брюс Уиллис,Ченнинг Татум,Дуэйн Скала Джонсон
Премьера (мир) 20 июня 2012
MI
General
Complete name : C:GI-Joe-2-Retaliation-89440.mp4
Format : MPEG-4
Format profile : Sony PSP
Codec ID : MSNV
File size : 140 MiB
Duration : 2mn 25s
Overall bit rate : 8 109 Kbps
Encoded date : UTC 2011-12-12 20:54:47
Tagged date : UTC 2011-12-12 20:54:47
Writing library : AVS
Video
ID : 1
Format : AVC
Format/Info : Advanced Video Codec
Format profile : Baseline@L1.3
Format settings, CABAC : No
Format settings, ReFrames : 1 frame
Codec ID : avc1
Codec ID/Info : Advanced Video Coding
Duration : 2mn 25s
Bit rate mode : Variable
Bit rate : 7 994 Kbps
Width : 1 920 pixels
Height : 794 pixels
Display aspect ratio : 2.40:1
Frame rate mode : Constant
Frame rate : 30.000 fps
Resolution : 8 bits
Colorimetry : 4:2:0
Scan type : Progressive
Bits/(Pixel*Frame) : 0.175
Stream size : 138 MiB (99%)
Language : English
Encoded date : UTC 2011-12-12 20:54:47
Tagged date : UTC 2011-12-12 20:54:47
Audio
ID : 2
Format : AAC
Format/Info : Advanced Audio Codec
Format version : Version 4
Format profile : LC
Format settings, SBR : No
Codec ID : 40
Duration : 2mn 24s
Bit rate mode : Constant
Bit rate : 108 Kbps
Nominal bit rate : 96.0 Kbps
Channel(s) : 2 channels
Channel positions : Front: L R
Sampling rate : 48.0 KHz
Stream size : 1.86 MiB (1%)
Language : English
Encoded date : UTC 2011-12-12 20:54:47
Tagged date : UTC 2011-12-12 20:54:47

Комментарии

К сожалению пока никто не оставил комментарий ;(